osu file format v14

[General]
AudioFilename: Preserved Valkyria.mp3
AudioLeadIn: 1500
PreviewTime: 80684
Countdown: 0
SampleSet: Soft
StackLeniency: 0.7
Mode: 3
LetterboxInBreaks: 0
WidescreenStoryboard: 0

[Editor]
Bookmarks: 13785,23075
DistanceSpacing: 0.5
BeatDivisor: 4
GridSize: 4
TimelineZoom: 1.9

[Metadata]
Title:Preserved Valkyria
TitleUnicode:Preserved Valkyria
Artist:penoreri
ArtistUnicode:ぺのれり
Creator:Takane6
Version:Shin's INFINITE
Source:SOUND VOLTEX III GRAVITY WARS
Tags:SDVX Shinzo- KONAMI KAC Song Contest Champion
BeatmapID:786383
BeatmapSetID:357488

[Difficulty]
HPDrainRate:8
CircleSize:7
OverallDifficulty:9
ApproachRate:5
SliderMultiplier:1.4
SliderTickRate:1

[Events]
//Background and Video events
0,0,"P_Valkyria.png",0,0
//Break Periods
//Storyboard Layer 0 (Background)
//Storyboard Layer 1 (Fail)
//Storyboard Layer 2 (Pass)
//Storyboard Layer 3 (Foreground)
//Storyboard Sound Samples
5,56275,0,"LR_Drum Hit Clap Sn.wav",35
5,63775,0,"LR_Kick Hard Fast.wav",35
5,64184,0,"soft-hitfinish.wav",35
5,113412,0,"LR_Kick Hard Fast.wav",35

[TimingPoints]
1400,387.096774193548,4,2,1,30,1,0
1400,-70.4225352112676,4,2,1,30,0,0
46299,400,4,2,1,30,1,0
46299,-70.4225352112676,4,2,1,30,0,0
46699,413.793103448276,4,2,1,30,1,0
46699,-70.4225352112676,4,2,1,30,0,0
47112,461.538461538462,4,2,1,30,1,0
47112,-70.4225352112676,4,2,1,30,0,0
47573,521.739130434783,4,2,1,30,1,0
47573,-70.4225352112676,4,2,1,30,0,0
48094,272.727272727273,4,2,1,30,1,0
83003,-100,4,2,1,30,0,1
100457,-100,4,2,1,30,0,0

[HitObjects]
256,192,1012,128,0,1400:0:0:0:0:
36,192,1400,1,0,0:0:0:30:soft-hitfinish.wav
182,192,1400,1,0,0:0:0:0:
329,192,1400,1,0,0:0:0:0:
475,192,1400,128,0,4303:0:0:0:0:
256,192,1787,1,0,0:0:0:0:
402,192,1787,1,0,0:0:0:0:
182,192,2174,1,0,0:0:0:0:
329,192,2174,1,0,0:0:0:0:
36,192,2464,1,0,0:0:0:0:
256,192,2464,1,0,0:0:0:0:
36,192,2754,1,0,0:0:0:0:
182,192,2754,1,0,0:0:0:0:
256,192,3141,1,0,0:0:0:0:
402,192,3141,1,0,0:0:0:0:
36,192,3529,1,0,0:0:0:0:
182,192,3722,1,0,0:0:0:0:
402,192,4012,1,0,0:0:0:0:
109,192,4303,1,0,0:0:0:0:
256,192,4303,1,0,0:0:0:0:
182,192,4690,1,0,0:0:0:0:
36,192,4787,1,0,0:0:0:0:
182,192,4980,1,0,0:0:0:0:
329,192,5077,1,0,0:0:0:0:
475,192,5077,1,0,0:0:0:0:
256,192,5464,1,0,0:0:0:0:
402,192,5658,1,0,0:0:0:0:
36,192,5851,1,0,0:0:0:0:
182,192,5851,1,0,0:0:0:0:
109,192,6141,1,0,0:0:0:0:
256,192,6335,1,0,0:0:0:0:
329,192,6432,1,0,0:0:0:0:
402,192,6529,1,0,0:0:0:0:
36,192,6625,1,0,0:0:0:0:
182,192,6722,1,0,0:0:0:0:
475,192,6819,1,0,0:0:0:0:
329,192,6819,1,0,0:0:0:0:
256,192,7206,128,0,7593:0:0:0:0:
36,192,7206,1,0,0:0:0:0:
36,192,7593,128,0,10690:0:0:0:0:
402,192,7593,1,0,0:0:0:0:
329,192,7593,1,0,0:0:0:0:
475,192,7593,1,0,0:0:0:0:
109,192,7787,1,0,0:0:0:0:
182,192,7883,1,0,0:0:0:0:
256,192,7980,1,0,0:0:0:0:
402,192,7980,1,0,0:0:0:0:
182,192,8174,1,0,0:0:0:0:
256,192,8270,1,0,0:0:0:0:
329,192,8367,1,0,0:0:0:0:
475,192,8367,1,0,0:0:0:0:
256,192,8561,1,0,0:0:0:0:
329,192,8658,1,0,0:0:0:0:
402,192,8754,1,0,0:0:0:0:
182,192,8754,1,0,0:0:0:0:
329,192,8948,1,0,0:0:0:0:
402,192,9045,1,0,0:0:0:0:
475,192,9141,1,0,0:0:0:0:
256,192,9141,1,0,0:0:0:0:
402,192,9335,1,0,0:0:0:0:
475,192,9432,1,0,0:0:0:0:
329,192,9529,1,0,0:0:0:0:
182,192,9529,1,0,0:0:0:0:
109,192,9722,1,0,0:0:0:0:
182,192,9819,1,0,0:0:0:0:
256,192,9916,1,0,0:0:0:0:
402,192,9916,1,0,0:0:0:0:
109,192,10012,1,0,0:0:0:0:
329,192,10109,1,0,0:0:0:0:
475,192,10109,1,0,0:0:0:0:
182,192,10206,1,0,0:0:0:0:
256,192,10303,1,0,0:0:0:30:LR4_RevCyCV6.wav
402,192,10303,1,0,0:0:0:0:
109,192,10399,1,0,0:0:0:0:
329,192,10496,1,0,0:0:0:0:
475,192,10496,1,0,0:0:0:0:
182,192,10593,1,0,0:0:0:0:
256,192,10690,1,0,0:0:0:0:
402,192,10690,1,0,0:0:0:0:
109,192,10819,1,0,0:0:0:0:
475,192,10948,1,0,0:0:0:0:
182,192,11077,1,0,0:0:0:0:
329,192,11077,1,0,0:0:0:0:
109,192,11206,1,0,0:0:0:0:
402,192,11335,1,0,0:0:0:0:
109,192,11464,1,0,0:0:0:0:
256,192,11464,1,0,0:0:0:0:
36,192,11593,1,0,0:0:0:0:
329,192,11722,1,0,0:0:0:0:
36,192,11851,1,0,0:0:0:0:
182,192,11851,1,0,0:0:0:0:
256,192,11980,1,0,0:0:0:0:
402,192,12109,1,0,0:0:0:0:
36,192,12238,128,0,13012:0:0:0:0:
182,192,12238,1,0,0:0:0:0:
109,192,12432,1,0,0:0:0:0:
256,192,12529,1,0,0:0:0:0:
402,192,12625,1,0,0:0:0:0:
182,192,12722,1,0,0:0:0:0:
329,192,12819,1,0,0:0:0:0:
109,192,12916,1,0,0:0:0:0:
256,192,13012,1,0,0:0:0:0:
402,192,13012,128,0,13399:0:0:0:0:
256,192,13399,128,0,13787:0:0:0:0:
329,192,13399,1,0,0:0:0:0:
36,192,13787,1,0,0:0:0:30:soft-hitfinish.wav
182,192,13787,1,0,0:0:0:0:
475,192,13787,1,0,0:0:0:0:
329,192,13980,1,0,0:0:0:0:
256,192,14174,1,0,0:0:0:0:
182,192,14367,1,0,0:0:0:0:
329,192,14561,1,0,0:0:0:0:
36,192,14754,1,0,0:0:0:0:
109,192,14851,1,0,0:0:0:0:
182,192,14948,1,0,0:0:0:0:
182,192,15141,1,0,0:0:0:0:
329,192,15238,1,0,0:0:0:0:
256,192,15335,1,0,0:0:0:0:
36,192,15432,1,0,0:0:0:0:
329,192,15529,1,0,0:0:0:0:
109,192,15625,1,0,0:0:0:0:
402,192,15722,1,0,0:0:0:0:
182,192,15819,1,0,0:0:0:0:
475,192,15916,1,0,0:0:0:0:
256,192,16012,1,0,0:0:0:0:
402,192,16109,1,0,0:0:0:0:
182,192,16206,1,0,0:0:0:0:
329,192,16303,1,0,0:0:0:0:
109,192,16399,1,0,0:0:0:0:
256,192,16496,1,0,0:0:0:0:
36,192,16593,1,0,0:0:0:0:
329,192,16690,1,0,0:0:0:0:
109,192,16787,1,0,0:0:0:0:
475,192,16883,1,0,0:0:0:0:
256,192,16883,1,0,0:0:0:0:
36,192,17077,1,0,0:0:0:0:
329,192,17174,1,0,0:0:0:0:
256,192,17270,1,0,0:0:0:0:
182,192,17367,1,0,0:0:0:0:
109,192,17464,1,0,0:0:0:0:
475,192,17561,1,0,0:0:0:0:
402,192,17658,1,0,0:0:0:0:
329,192,17754,1,0,0:0:0:0:
182,192,17851,1,0,0:0:0:0:
36,192,17948,1,0,0:0:0:0:
256,192,18045,1,0,0:0:0:0:
109,192,18141,1,0,0:0:0:0:
329,192,18238,1,0,0:0:0:0:
182,192,18335,1,0,0:0:0:0:
36,192,18432,1,0,0:0:0:0:
475,192,18432,1,0,0:0:0:0:
256,192,18529,1,0,0:0:0:0:
109,192,18625,1,0,0:0:0:0:
329,192,18722,1,0,0:0:0:0:
182,192,18819,1,0,0:0:0:0:
402,192,18916,1,0,0:0:0:0:
256,192,19012,1,0,0:0:0:0:
475,192,19109,1,0,0:0:0:0:
329,192,19206,1,0,0:0:0:0:
109,192,19206,1,0,0:0:0:0:
36,192,19303,1,0,0:0:0:0:
182,192,19399,1,0,0:0:0:0:
402,192,19399,1,0,0:0:0:0:
109,192,19496,1,0,0:0:0:0:
256,192,19593,1,0,0:0:0:0:
475,192,19593,1,0,0:0:0:0:
182,192,19690,1,0,0:0:0:0:
329,192,19787,1,0,0:0:0:0:
109,192,19787,1,0,0:0:0:0:
256,192,19883,1,0,0:0:0:0:
475,192,19980,1,0,0:0:0:30:soft-hitfinish.wav
182,192,19980,1,0,0:0:0:0:
36,192,19980,1,0,0:0:0:0:
402,192,20045,1,0,0:0:0:0:
329,192,20109,1,0,0:0:0:0:
256,192,20174,1,0,0:0:0:0:
182,192,20238,1,0,0:0:0:0:
109,192,20303,1,0,0:0:0:0:
36,192,20367,1,0,0:0:0:0:
475,192,20432,1,0,0:0:0:0:
402,192,20496,1,0,0:0:0:0:
329,192,20561,1,0,0:0:0:0:
256,192,20625,1,0,0:0:0:0:
182,192,20690,1,0,0:0:0:0:
109,192,20754,1,0,0:0:0:0:
256,192,20851,1,0,0:0:0:0:
329,192,20948,1,0,0:0:0:0:
475,192,20948,1,0,0:0:0:0:
109,192,21045,1,0,0:0:0:0:
256,192,21141,1,0,0:0:0:0:
402,192,21141,1,0,0:0:0:0:
36,192,21238,1,0,0:0:0:0:
329,192,21335,1,0,0:0:0:0:
475,192,21335,1,0,0:0:0:0:
109,192,21432,1,0,0:0:0:0:
36,192,21529,1,0,0:0:0:30:soft-hitfinish.wav
475,192,21529,1,0,0:0:0:0:
256,192,21529,1,0,0:0:0:0:
182,192,21625,1,0,0:0:0:0:
329,192,21722,1,0,0:0:0:0:
109,192,21819,1,0,0:0:0:0:
402,192,21916,1,0,0:0:0:0:
256,192,21916,1,0,0:0:0:0:
36,192,22012,1,0,0:0:0:0:
475,192,22109,1,0,0:0:0:0:
109,192,22206,1,0,0:0:0:0:
402,192,22303,1,0,0:0:0:0:
256,192,22303,1,0,0:0:0:0:
182,192,22399,1,0,0:0:0:0:
329,192,22496,1,0,0:0:0:30:soft-hitfinish.wav
36,192,22496,1,0,0:0:0:0:
109,192,22496,1,0,0:0:0:0:
256,192,22593,1,0,0:0:0:0:
182,192,22690,1,0,0:0:0:0:
109,192,22787,1,0,0:0:0:30:soft-hitfinish.wav
475,192,22787,1,0,0:0:0:0:
402,192,22787,1,0,0:0:0:0:
329,192,22883,1,0,0:0:0:0:
256,192,22980,1,0,0:0:0:0:
109,192,23077,1,0,0:0:0:30:LR_Drum Hit Clap Sn.wav
182,192,23077,1,0,0:0:0:0:
402,192,23174,1,0,0:0:0:30:LR_Drum Hit Clap Sn.wav
475,192,23174,1,0,0:0:0:0:
109,192,23270,1,0,0:0:0:30:LR_Drum Hit Clap Sn.wav
36,192,23270,1,0,0:0:0:0:
329,192,23367,1,0,0:0:0:30:LR_Drum Hit Clap Sn.wav
402,192,23367,1,0,0:0:0:0:
329,192,23561,1,0,0:0:0:30:LR_Drum Hit Clap Sn.wav
402,192,23561,1,0,0:0:0:0:
329,192,23754,1,0,0:0:0:30:LR_Drum Hit Clap Sn.wav
402,192,23754,1,0,0:0:0:0:
36,192,23851,1,0,0:0:0:30:LR_Drum Hit Clap Sn.wav
109,192,23851,1,0,0:0:0:0:
182,192,24045,1,0,0:0:0:30:LR_Drum Hit Clap Sn.wav
256,192,24045,1,0,0:0:0:0:
329,192,24141,1,0,0:0:0:30:LR_Drum Hit Clap Sn.wav
402,192,24141,1,0,0:0:0:0:
109,192,24335,1,0,0:0:0:30:LR_Drum Hit Clap Sn.wav
36,192,24335,1,0,0:0:0:0:
256,192,24529,1,0,0:0:0:30:LR_Drum Hit Clap Sn.wav
329,192,24529,1,0,0:0:0:0:
36,192,24722,1,0,0:0:0:30:LR_Drum Hit Clap Sn.wav
109,192,24722,1,0,0:0:0:0:
256,192,24819,1,0,0:0:0:30:LR_Drum Hit Clap Sn.wav
182,192,24819,1,0,0:0:0:0:
329,192,24916,1,0,0:0:0:30:LR_Drum Hit Clap Sn.wav
402,192,24916,1,0,0:0:0:0:
402,192,25109,1,0,0:0:0:30:LR_Drum Hit Clap Sn.wav
475,192,25109,1,0,0:0:0:0:
182,192,25303,1,0,0:0:0:30:LR_Drum Hit Clap Sn.wav
109,192,25303,1,0,0:0:0:0:
329,192,25399,1,0,0:0:0:30:LR_Drum Hit Clap Sn.wav
402,192,25399,1,0,0:0:0:0:
182,192,25593,1,0,0:0:0:30:LR_Drum Hit Clap Sn.wav
256,192,25593,1,0,0:0:0:0:
402,192,25690,1,0,0:0:0:30:LR_Drum Hit Clap Sn.wav
475,192,25690,1,0,0:0:0:0:
109,192,25883,1,0,0:0:0:30:LR_Drum Hit Clap Sn.wav
182,192,25883,1,0,0:0:0:0:
475,192,26077,1,0,0:0:0:30:LR_Drum Hit Clap Sn.wav
402,192,26077,1,0,0:0:0:0:
109,192,26174,1,0,0:0:0:30:LR_Drum Hit Clap Sn.wav
182,192,26174,1,0,0:0:0:30:soft-hitfinish.wav
36,192,26174,1,0,0:0:0:0:
329,192,26270,1,0,0:0:0:30:LR_Drum Hit Clap Sn.wav
256,192,26270,1,0,0:0:0:0:
402,192,26367,1,0,0:0:0:30:LR_Drum Hit Clap Sn.wav
475,192,26367,1,0,0:0:0:0:
36,192,26464,1,0,0:0:0:30:LR_Drum Hit Clap Sn.wav
182,192,26464,1,0,0:0:0:0:
256,192,26658,1,0,0:0:0:30:LR_Drum Hit Clap Sn.wav
402,192,26658,1,0,0:0:0:0:
36,192,26851,1,0,0:0:0:30:LR_Drum Hit Clap Sn.wav
182,192,26851,1,0,0:0:0:0:
256,192,26948,1,0,0:0:0:30:LR_Drum Hit Clap Sn.wav
402,192,26948,1,0,0:0:0:0:
109,192,27141,1,0,0:0:0:30:LR_Drum Hit Clap Sn.wav
256,192,27141,1,0,0:0:0:0:
329,192,27238,1,0,0:0:0:30:LR_Drum Hit Clap Sn.wav
475,192,27238,1,0,0:0:0:0:
329,192,27432,1,0,0:0:0:30:LR_Drum Hit Clap Sn.wav
402,192,27432,1,0,0:0:0:0:
36,192,27625,1,0,0:0:0:30:LR_Drum Hit Clap Sn.wav
109,192,27625,1,0,0:0:0:0:
329,192,27722,1,0,0:0:0:30:LR_Drum Hit Clap Sn.wav
402,192,27722,1,0,0:0:0:30:soft-hitfinish.wav
475,192,27722,1,0,0:0:0:0:
182,192,27819,1,0,0:0:0:30:LR_Drum Hit Clap Sn.wav
256,192,27819,1,0,0:0:0:0:
109,192,27916,1,0,0:0:0:30:LR_Drum Hit Clap Sn.wav
36,192,27916,1,0,0:0:0:0:
256,192,28012,1,0,0:0:0:30:LR_Drum Hit Clap Sn.wav
329,192,28012,1,0,0:0:0:0:
36,192,28206,1,0,0:0:0:30:LR_Drum Hit Clap Sn.wav
475,192,28206,1,0,0:0:0:0:
475,192,28399,1,0,0:0:0:30:LR_Drum Hit Clap Sn.wav
36,192,28399,1,0,0:0:0:0:
402,192,28496,1,0,0:0:0:30:LR_Drum Hit Clap Sn.wav
329,192,28496,1,0,0:0:0:30:soft-hitfinish.wav
182,192,28496,1,0,0:0:0:0:
109,192,28496,1,0,0:0:0:0:
109,192,28625,1,0,0:0:0:30:LR_Drum Hit Clap Sn.wav
402,192,28625,1,0,0:0:0:0:
256,192,28625,1,0,0:0:0:0:
109,192,28754,1,0,0:0:0:30:LR_Drum Hit Clap Sn.wav
402,192,28754,1,0,0:0:0:0:
256,192,28754,1,0,0:0:0:0:
36,192,28883,1,0,0:0:0:30:LR_Drum Hit Clap Sn.wav
475,192,28883,1,0,0:0:0:30:soft-hitfinish.wav
182,192,28883,1,0,0:0:0:0:
329,192,28883,1,0,0:0:0:0:
256,192,29012,1,0,0:0:0:30:LR_Drum Hit Clap Sn.wav
475,192,29012,1,0,0:0:0:0:
36,192,29012,1,0,0:0:0:0:
475,192,29141,1,0,0:0:0:30:LR_Drum Hit Clap Sn.wav
256,192,29141,1,0,0:0:0:0:
36,192,29141,1,0,0:0:0:0:
256,192,32367,128,0,33141:0:0:0:0:
329,192,33045,1,0,0:0:0:0:
402,192,33093,1,0,0:0:0:0:
182,192,33141,1,0,0:0:0:35:soft-hitfinish.wav
36,192,33141,1,0,0:0:0:0:
475,192,33141,128,0,33916:0:0:0:0:
329,192,33916,128,0,35464:0:0:0:0:
36,192,33916,1,0,0:0:0:0:
256,192,35367,1,0,0:0:0:0:
182,192,35416,1,0,0:0:0:0:
36,192,35464,128,0,38174:0:0:0:0:
109,192,35464,1,0,0:0:0:0:
329,192,38174,1,0,0:0:0:30:LR_Drum Hit Clap Sn.wav
475,192,38174,1,0,0:0:0:0:
256,192,38464,1,0,0:0:0:30:LR_Tom Hit.wav
36,192,38561,1,0,0:0:0:35:LR_Tom Hit.wav
402,192,38561,128,0,39335:0:0:0:0:
109,192,38625,1,0,0:0:0:35:LR_Tom Hit.wav
182,192,38690,1,0,0:0:0:35:LR_Tom Hit.wav
329,192,38754,1,0,0:0:0:35:LR_Tom Hit.wav
256,192,38819,1,0,0:0:0:35:LR_Tom Hit.wav
182,192,38883,1,0,0:0:0:35:LR_Tom Hit.wav
36,192,38948,1,0,0:0:0:35:LR_Tom Normal.wav
109,192,39012,1,0,0:0:0:35:LR_Tom Normal.wav
182,192,39077,1,0,0:0:0:35:LR_Tom Normal.wav
329,192,39141,1,0,0:0:0:0:
256,192,39206,1,0,0:0:0:35:LR_Tom Normal.wav
182,192,39270,1,0,0:0:0:35:LR_Tom Normal.wav
109,192,39335,1,0,0:0:0:35:LR_Tom Normal.wav
36,192,39335,1,0,0:0:0:30:soft-hitfinish.wav
475,192,39335,128,0,40109:0:0:0:0:
329,192,39335,1,0,0:0:0:0:
36,192,39722,1,0,0:0:0:0:
256,192,40012,1,0,0:0:0:0:
329,192,40109,128,0,41658:0:0:0:0:
109,192,40109,1,0,0:0:0:0:
182,192,40109,1,0,0:0:0:0:
36,192,40496,1,0,0:0:0:0:
256,192,40883,1,0,0:0:0:35:LR_Drum Hit Clap Sn.wav
182,192,41174,1,0,0:0:0:35:LR_Tom Hit.wav
109,192,41464,1,0,0:0:0:35:LR_Tom Hit.wav
256,192,41658,128,0,44754:0:0:0:0:
36,192,41658,1,0,0:0:0:35:soft-hitfinish.wav
475,192,41658,1,0,0:0:0:0:
475,192,41851,1,0,0:0:0:30:LR_Drum Hit Clap Sn.wav
402,192,41851,1,0,0:0:0:0:
475,192,42045,1,0,0:0:0:30:LR_Drum Hit Clap Sn.wav
402,192,42045,1,0,0:0:0:0:
36,192,42141,1,0,0:0:0:30:soft-hitfinish.wav
329,192,42335,1,0,0:0:0:30:LR_Drum Hit Clap Sn.wav
402,192,42335,1,0,0:0:0:0:
329,192,42625,1,0,0:0:0:30:LR_Drum Hit Clap Sn.wav
36,192,42722,1,0,0:0:0:30:soft-hitfinish.wav
329,192,42916,1,0,0:0:0:30:LR_Drum Hit Clap Sn.wav
36,192,43012,1,0,0:0:0:30:soft-hitfinish.wav
475,192,43109,1,0,0:0:0:0:
402,192,43206,1,0,0:0:0:30:LR_Drum Hit Clap Sn.wav
329,192,43206,1,0,0:0:0:0:
109,192,43496,1,0,0:0:0:30:LR_Drum Hit Clap Sn.wav
182,192,43496,1,0,0:0:0:0:
182,192,43787,1,0,0:0:0:30:LR_Drum Hit Clap Sn.wav
109,192,43787,1,0,0:0:0:0:
36,192,44077,1,0,0:0:0:30:LR_Drum Hit Clap Sn.wav
109,192,44077,1,0,0:0:0:0:
36,192,44367,1,0,0:0:0:30:LR_Drum Hit Clap Sn.wav
109,192,44367,1,0,0:0:0:0:
475,192,44432,1,0,0:0:0:0:
402,192,44496,1,0,0:0:0:0:
329,192,44561,1,0,0:0:0:0:
182,192,44625,1,0,0:0:0:0:
109,192,44690,1,0,0:0:0:0:
36,192,44754,1,0,0:0:0:30:soft-hitfinish.wav
475,192,44754,1,0,0:0:0:0:
329,192,45529,1,0,0:0:0:0:
36,192,45722,1,0,0:0:0:0:
182,192,45916,1,0,0:0:0:0:
329,192,46109,1,0,0:0:0:0:
36,192,46206,1,0,0:0:0:0:
109,192,46254,1,0,0:0:0:0:
182,192,46299,128,0,47112:0:0:0:0:
329,192,47112,1,0,0:0:0:0:
182,192,47573,1,0,0:0:0:0:
36,192,48094,1,0,0:0:0:30:soft-hitfinish.wav
182,192,48094,1,0,0:0:0:0:
475,192,48094,1,0,0:0:0:0:
329,192,48094,128,0,50275:0:0:0:0:
182,192,48230,1,0,0:0:0:0:
182,192,48366,1,0,0:0:0:0:
36,192,48503,1,0,0:0:0:0:
36,192,48639,1,0,0:0:0:0:
36,192,48775,1,0,0:0:0:0:
256,192,48912,1,0,0:0:0:0:
256,192,49048,1,0,0:0:0:0:
256,192,49184,1,0,0:0:0:0:
109,192,49321,1,0,0:0:0:0:
109,192,49457,1,0,0:0:0:0:
109,192,49594,1,0,0:0:0:0:
256,192,49730,1,0,0:0:0:0:
256,192,49866,1,0,0:0:0:0:
475,192,50003,1,0,0:0:0:0:
475,192,50139,1,0,0:0:0:0:
182,192,50275,128,0,52457:0:0:0:0:
256,192,50275,1,0,0:0:0:0:
256,192,50412,1,0,0:0:0:0:
256,192,50548,1,0,0:0:0:0:
36,192,50684,1,0,0:0:0:0:
36,192,50821,1,0,0:0:0:0:
36,192,50957,1,0,0:0:0:0:
329,192,51094,1,0,0:0:0:0:
329,192,51230,1,0,0:0:0:0:
329,192,51366,1,0,0:0:0:0:
109,192,51503,1,0,0:0:0:0:
109,192,51639,1,0,0:0:0:0:
109,192,51775,1,0,0:0:0:0:
329,192,51912,1,0,0:0:0:0:
329,192,52048,1,0,0:0:0:0:
475,192,52184,1,0,0:0:0:0:
475,192,52321,1,0,0:0:0:0:
402,192,52457,128,0,54094:0:0:0:0:
256,192,52457,1,0,0:0:0:0:
36,192,52457,1,0,0:0:0:0:
109,192,52457,1,0,0:0:0:0:
256,192,52594,1,0,0:0:0:0:
256,192,52730,1,0,0:0:0:0:
109,192,52866,1,0,0:0:0:0:
109,192,53003,1,0,0:0:0:0:
109,192,53139,1,0,0:0:0:0:
329,192,53275,1,0,0:0:0:0:
329,192,53412,1,0,0:0:0:0:
329,192,53548,1,0,0:0:0:0:
182,192,53684,1,0,0:0:0:0:
182,192,53821,1,0,0:0:0:0:
182,192,53957,1,0,0:0:0:0:
256,192,54094,1,0,0:0:0:30:soft-hitfinish.wav
36,192,54094,1,0,0:0:0:0:
475,192,54094,1,0,0:0:0:0:
256,192,54230,1,0,0:0:0:0:
329,192,54366,1,0,0:0:0:0:
329,192,54503,1,0,0:0:0:0:
109,192,54639,128,0,55730:0:0:0:0:
36,192,54639,1,0,0:0:0:0:
402,192,54639,1,0,0:0:0:0:
475,192,54639,1,0,0:0:0:0:
402,192,54775,1,0,0:0:0:0:
402,192,54912,1,0,0:0:0:0:
182,192,55048,1,0,0:0:0:0:
182,192,55184,1,0,0:0:0:0:
182,192,55321,1,0,0:0:0:0:
256,192,55457,1,0,0:0:0:0:
256,192,55594,1,0,0:0:0:0:
256,192,55730,1,0,0:0:0:35:LR_Drum Hit Clap Sn.wav
36,192,55730,1,0,0:0:0:30:soft-hitfinish.wav
329,192,55730,128,0,56003:0:0:0:0:
475,192,55730,128,0,56003:0:0:0:0:
402,192,55866,128,0,56003:0:0:0:0:
36,192,56003,128,0,56275:0:0:0:0:
182,192,56003,128,0,56275:0:0:0:0:
109,192,56139,128,0,56275:0:0:0:0:
256,192,56275,128,0,56344:0:0:0:0:
329,192,56344,128,0,56412:0:0:0:0:
402,192,56412,128,0,56480:0:0:0:0:
475,192,56480,128,0,56548:0:0:0:0:
36,192,56548,128,0,56616:0:0:0:0:
256,192,56548,1,0,0:0:0:35:LR_Drum Hit Clap Sn.wav
109,192,56616,128,0,56684:0:0:0:0:
182,192,56684,128,0,56753:0:0:0:0:
256,192,56753,128,0,56821:0:0:0:0:
329,192,56821,1,0,0:0:0:30:soft-hitfinish.wav
475,192,56821,128,0,56957:0:0:0:0:
182,192,56957,1,0,0:0:0:35:LR_Kick Hard Fast.wav
36,192,57094,1,0,0:0:0:30:LR_Drum Hit Clap Sn.wav
109,192,57094,1,0,0:0:0:35:LR_Kick Hard Fast.wav
329,192,57230,128,0,57366:0:0:0:0:
475,192,57230,1,0,0:0:0:0:
182,192,57366,1,0,0:0:0:35:LR_Kick Hard Fast.wav
402,192,57503,1,0,0:0:0:35:LR_Kick Hard Fast.wav
36,192,57639,1,0,0:0:0:30:LR_Drum Hit Clap Sn.wav
475,192,57639,128,0,57775:0:0:0:0:
256,192,57639,1,0,0:0:0:0:
109,192,57775,1,0,0:0:0:35:LR_Kick Hard Fast.wav
402,192,57912,1,0,0:0:0:35:LR_Kick Hard Fast.wav
329,192,58048,128,0,58184:0:0:0:0:
182,192,58048,1,0,0:0:0:0:
36,192,58184,1,0,0:0:0:35:LR_Kick Hard Fast.wav
109,192,58184,1,0,0:0:0:30:LR_Drum Hit Clap Sn.wav
182,192,58321,1,0,0:0:0:35:LR_Kick Hard Fast.wav
329,192,58457,128,0,58594:0:0:0:0:
475,192,58457,1,0,0:0:0:0:
256,192,58594,1,0,0:0:0:35:LR_Kick Hard Fast.wav
36,192,58730,1,0,0:0:0:30:LR_Drum Hit Clap Sn.wav
402,192,58730,128,0,58866:0:0:0:0:
109,192,58730,1,0,0:0:0:0:
182,192,58866,1,0,0:0:0:35:LR_Kick Hard Fast.wav
36,192,59003,128,0,59139:0:0:0:0:
256,192,59003,1,0,0:0:0:0:
402,192,59139,1,0,0:0:0:35:LR_Kick Hard Fast.wav
475,192,59275,1,0,0:0:0:30:LR_Drum Hit Clap Sn.wav
256,192,59275,1,0,0:0:0:35:LR_Kick Hard Fast.wav
182,192,59412,128,0,59548:0:0:0:0:
36,192,59412,1,0,0:0:0:0:
329,192,59548,1,0,0:0:0:35:LR_Kick Hard Fast.wav
109,192,59684,1,0,0:0:0:35:LR_Kick Hard Fast.wav
475,192,59821,1,0,0:0:0:35:LR_Kick Hard Fast.wav
36,192,59821,128,0,59957:0:0:0:0:
256,192,59821,1,0,0:0:0:0:
329,192,59957,1,0,0:0:0:35:LR_Kick Hard Fast.wav
109,192,60094,1,0,0:0:0:35:LR_Kick Hard Fast.wav
182,192,60230,128,0,60366:0:0:0:0:
329,192,60230,1,0,0:0:0:0:
475,192,60366,1,0,0:0:0:30:LR_Drum Hit Clap Sn.wav
402,192,60366,1,0,0:0:0:35:LR_Kick Hard Fast.wav
329,192,60503,1,0,0:0:0:35:LR_Kick Hard Fast.wav
182,192,60639,128,0,60775:0:0:0:0:
36,192,60639,1,0,0:0:0:0:
329,192,60775,1,0,0:0:0:35:LR_Kick Hard Fast.wav
475,192,60912,1,0,0:0:0:35:LR_Kick Hard Fast.wav
36,192,60912,128,0,61048:0:0:0:0:
256,192,60912,1,0,0:0:0:0:
329,192,61048,1,0,0:0:0:35:LR_Kick Hard Fast.wav
256,192,61184,1,0,0:0:0:35:LR_Kick Hard Fast.wav
475,192,61184,1,0,0:0:0:0:
402,192,61184,1,0,0:0:0:0:
36,192,61184,1,0,0:0:0:35:soft-hitfinish.wav
109,192,61321,1,0,0:0:0:35:LR_Kick Hard Fast.wav
182,192,61321,1,0,0:0:0:0:
475,192,61457,1,0,0:0:0:30:LR_Drum Hit Clap Sn.wav
36,192,61457,1,0,0:0:0:35:LR_Kick Hard Fast.wav
329,192,61457,1,0,0:0:0:0:
402,192,61457,1,0,0:0:0:0:
182,192,61594,1,0,0:0:0:35:LR_Kick Hard Fast.wav
256,192,61594,1,0,0:0:0:0:
402,192,61730,1,0,0:0:0:35:LR_Kick Hard Fast.wav
475,192,61730,1,0,0:0:0:0:
256,192,61866,1,0,0:0:0:35:LR_Kick Hard Fast.wav
329,192,61866,1,0,0:0:0:0:
36,192,62003,1,0,0:0:0:30:LR_Drum Hit Clap Sn.wav
109,192,62003,1,0,0:0:0:35:LR_Kick Hard Fast.wav
182,192,62003,1,0,0:0:0:0:
475,192,62003,1,0,0:0:0:0:
329,192,62139,1,0,0:0:0:35:LR_Kick Hard Fast.wav
256,192,62139,1,0,0:0:0:0:
109,192,62275,1,0,0:0:0:35:LR_Kick Hard Fast.wav
182,192,62275,1,0,0:0:0:0:
402,192,62412,1,0,0:0:0:35:LR_Kick Hard Fast.wav
329,192,62412,1,0,0:0:0:0:
36,192,62548,1,0,0:0:0:35:LR_Kick Hard Fast.wav
256,192,62548,1,0,0:0:0:30:LR_Drum Hit Clap Sn.wav
182,192,62548,1,0,0:0:0:0:
475,192,62548,1,0,0:0:0:0:
329,192,62684,1,0,0:0:0:35:LR_Kick Hard Fast.wav
402,192,62684,1,0,0:0:0:0:
182,192,62821,1,0,0:0:0:35:LR_Kick Hard Fast.wav
109,192,62821,1,0,0:0:0:35:soft-hitfinish.wav
256,192,62957,1,0,0:0:0:35:LR_Kick Hard Fast.wav
36,192,63094,1,0,0:0:0:30:LR_Drum Hit Clap Sn.wav
109,192,63094,1,0,0:0:0:35:LR_Kick Hard Fast.wav
475,192,63094,1,0,0:0:0:0:
402,192,63094,1,0,0:0:0:0:
329,192,63230,1,0,0:0:0:35:LR_Kick Hard Fast.wav
256,192,63366,1,0,0:0:0:35:LR_Kick Hard Fast.wav
475,192,63366,1,0,0:0:0:35:soft-hitfinish.wav
182,192,63503,1,0,0:0:0:35:LR_Kick Hard Fast.wav
109,192,63571,1,0,0:0:0:0:
36,192,63639,1,0,0:0:0:30:LR_Drum Hit Clap Sn.wav
256,192,63639,1,0,0:0:0:35:LR_Kick Hard Fast.wav
475,192,63639,1,0,0:0:0:0:
329,192,63775,1,0,0:0:0:30:soft-hitfinish.wav
256,192,63844,1,0,0:0:0:0:
182,192,63912,1,0,0:0:0:35:LR_Kick Hard Fast.wav
36,192,64048,1,0,0:0:0:30:LR_Drum Hit Clap Sn.wav
109,192,64048,1,0,0:0:0:35:LR_Kick Hard Fast.wav
329,192,64048,1,0,0:0:0:0:
402,192,64116,1,0,0:0:0:0:
475,192,64184,1,0,0:0:0:35:LR_Kick Hard Fast.wav
256,192,64253,1,0,0:0:0:0:
329,192,64321,1,0,0:0:0:35:LR_Kick Hard Fast.wav
402,192,64389,1,0,0:0:0:0:
475,192,64457,1,0,0:0:0:30:LR_Drum Hit Clap Sn.wav
36,192,64457,1,0,0:0:0:35:LR_Kick Hard Fast.wav
109,192,64457,1,0,0:0:0:0:
182,192,64594,1,0,0:0:0:35:LR_Kick Hard Fast.wav
256,192,64594,1,0,0:0:0:35:soft-hitfinish.wav
329,192,64730,1,0,0:0:0:35:LR_Kick Hard Fast.wav
402,192,64730,1,0,0:0:0:0:
36,192,64866,1,0,0:0:0:30:LR_Drum Hit Clap Sn.wav
182,192,64866,1,0,0:0:0:35:LR_Kick Hard Fast.wav
256,192,64866,1,0,0:0:0:0:
402,192,65003,1,0,0:0:0:35:LR_Kick Hard Fast.wav
475,192,65003,1,0,0:0:0:0:
109,192,65094,1,0,0:0:0:35:LR_Kick Hard Fast.wav
182,192,65184,1,0,0:0:0:35:LR_Kick Hard Fast.wav
256,192,65275,1,0,0:0:0:35:LR_Kick Hard Fast.wav
329,192,65275,1,0,0:0:0:0:
36,192,65366,1,0,0:0:0:35:LR_Kick Hard Fast.wav
109,192,65457,1,0,0:0:0:35:LR_Kick Hard Fast.wav
182,192,65548,1,0,0:0:0:35:LR_Kick Hard Fast.wav
256,192,65548,1,0,0:0:0:30:soft-hitfinish.wav
256,192,65957,1,0,0:0:0:0:
329,192,65957,1,0,0:0:0:0:
402,192,66366,1,0,0:0:0:0:
475,192,66366,1,0,0:0:0:0:
36,192,66912,1,0,0:0:0:0:
109,192,66912,1,0,0:0:0:0:
182,192,67184,1,0,0:0:0:0:
256,192,67184,1,0,0:0:0:0:
329,192,67457,1,0,0:0:0:0:
402,192,67457,1,0,0:0:0:0:
475,192,67730,1,0,0:0:0:0:
329,192,68548,1,0,0:0:0:0:
256,192,68548,1,0,0:0:0:0:
182,192,68684,1,0,0:0:0:0:
109,192,68684,1,0,0:0:0:0:
36,192,69503,1,0,0:0:0:0:
182,192,69639,1,0,0:0:0:0:
329,192,69775,1,0,0:0:0:0:
475,192,69912,1,0,0:0:0:0:
36,192,69912,1,0,0:0:0:0:
475,192,70048,1,0,0:0:0:0:
329,192,70184,1,0,0:0:0:0:
329,192,70321,1,0,0:0:0:0:
36,192,70457,1,0,0:0:0:0:
36,192,70594,1,0,0:0:0:0:
182,192,70730,1,0,0:0:0:0:
182,192,70866,1,0,0:0:0:0:
256,192,71003,1,0,0:0:0:0:
36,192,71003,1,0,0:0:0:0:
402,192,71139,1,0,0:0:0:0:
402,192,71275,1,0,0:0:0:0:
109,192,71548,1,0,0:0:0:0:
256,192,71821,1,0,0:0:0:0:
182,192,72003,1,0,0:0:0:0:
329,192,72094,1,0,0:0:0:0:
475,192,72094,1,0,0:0:0:0:
36,192,72230,1,0,0:0:0:0:
182,192,72366,1,0,0:0:0:0:
475,192,72366,1,0,0:0:0:0:
182,192,72503,1,0,0:0:0:0:
109,192,72775,1,0,0:0:0:0:
329,192,73048,1,0,0:0:0:0:
36,192,73184,1,0,0:0:0:0:
109,192,73321,1,0,0:0:0:0:
182,192,73457,1,0,0:0:0:0:
256,192,73594,1,0,0:0:0:0:
475,192,73730,1,0,0:0:0:0:
329,192,74003,1,0,0:0:0:0:
182,192,74275,1,0,0:0:0:0:
36,192,74275,1,0,0:0:0:0:
256,192,74412,1,0,0:0:0:0:
329,192,74548,1,0,0:0:0:0:
402,192,74684,1,0,0:0:0:0:
109,192,74957,1,0,0:0:0:0:
182,192,75094,1,0,0:0:0:0:
256,192,75230,1,0,0:0:0:0:
402,192,75366,1,0,0:0:0:0:
36,192,75366,1,0,0:0:0:0:
256,192,75503,1,0,0:0:0:0:
109,192,75639,1,0,0:0:0:0:
475,192,75775,1,0,0:0:0:0:
182,192,76184,1,0,0:0:0:0:
329,192,76457,1,0,0:0:0:0:
475,192,76457,1,0,0:0:0:0:
182,192,76594,1,0,0:0:0:0:
36,192,76730,1,0,0:0:0:0:
402,192,76730,1,0,0:0:0:0:
402,192,76866,1,0,0:0:0:0:
256,192,77139,1,0,0:0:0:0:
256,192,77275,1,0,0:0:0:0:
109,192,77412,1,0,0:0:0:0:
109,192,77548,1,0,0:0:0:0:
182,192,77821,1,0,0:0:0:0:
36,192,77957,1,0,0:0:0:0:
256,192,78094,1,0,0:0:0:0:
109,192,78230,1,0,0:0:0:0:
329,192,78366,1,0,0:0:0:0:
182,192,78503,1,0,0:0:0:0:
402,192,78639,1,0,0:0:0:0:
329,192,78639,1,0,0:0:0:0:
475,192,78639,128,0,80821:0:0:0:0:
36,192,78775,1,0,0:0:0:0:
109,192,78912,1,0,0:0:0:0:
182,192,79048,1,0,0:0:0:0:
256,192,79184,1,0,0:0:0:0:
36,192,79457,1,0,0:0:0:0:
182,192,79457,1,0,0:0:0:0:
36,192,79594,1,0,0:0:0:0:
182,192,79594,1,0,0:0:0:0:
256,192,79866,1,0,0:0:0:0:
182,192,80003,1,0,0:0:0:0:
109,192,80139,1,0,0:0:0:0:
256,192,80275,1,0,0:0:0:0:
182,192,80412,1,0,0:0:0:0:
109,192,80548,1,0,0:0:0:0:
36,192,80684,1,0,0:0:0:0:
256,192,80684,1,0,0:0:0:0:
109,192,80821,1,0,0:0:0:30:soft-hitfinish.wav
182,192,80821,1,0,0:0:0:0:
402,192,80821,1,0,0:0:0:0:
329,192,80821,128,0,81639:0:0:0:0:
36,192,81094,1,0,0:0:0:30:LR_Drum Hit Clap Sn.wav
109,192,81094,1,0,0:0:0:0:
182,192,81094,1,0,0:0:0:0:
475,192,81230,1,0,0:0:0:35:soft-hitfinish.wav
402,192,81230,1,0,0:0:0:0:
36,192,81503,1,0,0:0:0:30:LR_Drum Hit Clap Sn.wav
109,192,81503,1,0,0:0:0:0:
182,192,81503,1,0,0:0:0:0:
475,192,81639,1,0,0:0:0:35:LR_Kick Hard Fast.wav
256,192,81639,128,0,81775:0:0:0:0:
402,192,81639,1,0,0:0:0:35:soft-hitfinish.wav
182,192,81775,128,0,82457:0:0:0:0:
36,192,81912,1,0,0:0:0:30:LR_Drum Hit Clap Sn.wav
109,192,81912,1,0,0:0:0:0:
329,192,81912,1,0,0:0:0:0:
475,192,82048,1,0,0:0:0:30:LR_Drum Hit Clap Sn.wav
402,192,82048,1,0,0:0:0:35:LR_Kick Hard Fast.wav
256,192,82184,1,0,0:0:0:35:LR_Kick Hard Fast.wav
329,192,82184,1,0,0:0:0:0:
109,192,82321,1,0,0:0:0:35:LR_Kick Hard Fast.wav
36,192,82321,1,0,0:0:0:0:
329,192,82457,128,0,82730:0:0:0:0:
475,192,82730,128,0,83003:0:0:0:0:
182,192,83003,128,0,83412:0:0:0:0:
36,192,83003,1,0,0:0:0:35:LR_Kick Hard Fast.wav
402,192,83003,1,0,0:0:0:0:
109,192,83139,1,0,0:0:0:0:
475,192,83275,1,0,0:0:0:0:
256,192,83275,1,0,0:0:0:35:LR_Drum Hit Clap Sn.wav
36,192,83412,128,0,83821:0:0:0:0:
329,192,83412,1,0,0:0:0:30:LR_Kick Hard Fast.wav
402,192,83548,1,0,0:0:0:0:
475,192,83684,1,0,0:0:0:0:
256,192,83684,1,0,0:0:0:35:LR_Drum Hit Clap Sn.wav
329,192,83821,128,0,84639:0:0:0:0:
109,192,83821,1,0,0:0:0:35:LR_Kick Hard Fast.wav
182,192,83821,1,0,0:0:0:0:
402,192,83821,1,0,0:0:0:0:
475,192,83957,1,0,0:0:0:35:LR_Kick Hard Fast.wav
182,192,84230,1,0,0:0:0:35:LR_Kick Hard Fast.wav
36,192,84366,1,0,0:0:0:30:LR_Drum Hit Clap Sn.wav
402,192,84366,1,0,0:0:0:0:
475,192,84366,1,0,0:0:0:0:
256,192,84503,1,0,0:0:0:0:
182,192,84639,128,0,84912:0:0:0:0:
109,192,84639,1,0,0:0:0:0:
329,192,84775,1,0,0:0:0:35:LR_Kick Hard Fast.wav
36,192,84912,128,0,85184:0:0:0:0:
475,192,84912,1,0,0:0:0:0:
256,192,84912,1,0,0:0:0:0:
402,192,84912,1,0,0:0:0:0:
182,192,85048,1,0,0:0:0:0:
475,192,85184,128,0,86003:0:0:0:0:
329,192,85184,1,0,0:0:0:0:
256,192,85321,1,0,0:0:0:0:
36,192,85457,1,0,0:0:0:30:LR_Drum Hit Clap Sn.wav
109,192,85457,1,0,0:0:0:0:
402,192,85594,1,0,0:0:0:35:LR_Kick Hard Fast.wav
182,192,85730,1,0,0:0:0:0:
256,192,85866,1,0,0:0:0:35:LR_Kick Hard Fast.wav
329,192,86003,128,0,86139:0:0:0:0:
36,192,86003,1,0,0:0:0:0:
402,192,86003,1,0,0:0:0:0:
182,192,86139,128,0,86957:0:0:0:0:
109,192,86139,1,0,0:0:0:0:
256,192,86139,1,0,0:0:0:0:
475,192,86275,1,0,0:0:0:0:
329,192,86412,1,0,0:0:0:35:LR_Kick Hard Fast.wav
36,192,86548,1,0,0:0:0:30:LR_Drum Hit Clap Sn.wav
109,192,86548,1,0,0:0:0:0:
402,192,86684,1,0,0:0:0:0:
475,192,86684,1,0,0:0:0:0:
329,192,86821,1,0,0:0:0:35:LR_Tom Hit.wav
36,192,86957,128,0,87094:0:0:0:0:
402,192,87094,1,0,0:0:0:30:LR_Drum Hit Clap Sn.wav
109,192,87094,128,0,87230:0:0:0:0:
475,192,87094,1,0,0:0:0:0:
182,192,87230,128,0,87366:0:0:0:0:
475,192,87366,1,0,0:0:0:35:LR_Kick Hard Fast.wav
329,192,87366,1,0,0:0:0:0:
402,192,87366,1,0,0:0:0:0:
36,192,87366,1,0,0:0:0:35:soft-hitfinish.wav
329,192,87503,1,0,0:0:0:35:LR_Kick Hard Fast.wav
402,192,87503,1,0,0:0:0:0:
182,192,87639,1,0,0:0:0:30:LR_Drum Hit Clap Sn.wav
475,192,87639,1,0,0:0:0:0:
109,192,87639,1,0,0:0:0:0:
182,192,87775,1,0,0:0:0:35:LR_Kick Hard Fast.wav
109,192,87775,1,0,0:0:0:0:
402,192,87912,1,0,0:0:0:0:
329,192,87912,1,0,0:0:0:0:
402,192,88048,1,0,0:0:0:35:LR_Kick Hard Fast.wav
329,192,88048,1,0,0:0:0:0:
182,192,88184,1,0,0:0:0:30:LR_Drum Hit Clap Sn.wav
475,192,88184,1,0,0:0:0:0:
109,192,88184,1,0,0:0:0:0:
182,192,88321,128,0,88594:0:0:0:0:
109,192,88321,1,0,0:0:0:0:
256,192,88457,1,0,0:0:0:0:
402,192,88594,1,0,0:0:0:35:LR_Kick Hard Fast.wav
475,192,88594,1,0,0:0:0:0:
475,192,88730,128,0,89003:0:0:0:0:
36,192,88730,1,0,0:0:0:30:LR_Drum Hit Clap Sn.wav
109,192,88730,1,0,0:0:0:0:
402,192,88730,1,0,0:0:0:0:
182,192,88866,1,0,0:0:0:0:
329,192,89003,128,0,89275:0:0:0:0:
256,192,89003,1,0,0:0:0:0:
182,192,89139,1,0,0:0:0:0:
402,192,89275,128,0,89548:0:0:0:0:
36,192,89275,1,0,0:0:0:30:LR_Drum Hit Clap Sn.wav
109,192,89275,1,0,0:0:0:0:
256,192,89548,128,0,89821:0:0:0:0:
36,192,89548,1,0,0:0:0:0:
182,192,89821,1,0,0:0:0:30:LR_Drum Hit Clap Sn.wav
402,192,89821,1,0,0:0:0:0:
475,192,89821,1,0,0:0:0:0:
109,192,89821,1,0,0:0:0:0:
182,192,89957,128,0,90230:0:0:0:0:
109,192,89957,128,0,90230:0:0:0:0:
329,192,90230,1,0,0:0:0:35:LR_Kick Hard Fast.wav
402,192,90298,1,0,0:0:0:0:
36,192,90366,1,0,0:0:0:30:LR_Drum Hit Clap Sn.wav
109,192,90366,1,0,0:0:0:0:
475,192,90366,1,0,0:0:0:0:
256,192,90503,1,0,0:0:0:0:
36,192,90639,1,0,0:0:0:35:LR_Kick Hard Fast.wav
109,192,90707,1,0,0:0:0:0:
182,192,90775,1,0,0:0:0:0:
256,192,90844,1,0,0:0:0:0:
109,192,90912,1,0,0:0:0:30:LR_Drum Hit Clap Sn.wav
475,192,90912,1,0,0:0:0:0:
182,192,90980,1,0,0:0:0:0:
256,192,91048,1,0,0:0:0:0:
329,192,91116,1,0,0:0:0:0:
182,192,91184,1,0,0:0:0:35:LR_Kick Hard Fast.wav
256,192,91253,1,0,0:0:0:0:
329,192,91321,1,0,0:0:0:35:LR_Kick Hard Fast.wav
402,192,91389,1,0,0:0:0:0:
256,192,91457,1,0,0:0:0:30:LR_Drum Hit Clap Sn.wav
36,192,91457,1,0,0:0:0:0:
329,192,91525,1,0,0:0:0:0:
402,192,91594,1,0,0:0:0:35:LR_Kick Hard Fast.wav
475,192,91662,1,0,0:0:0:0:
329,192,91730,1,0,0:0:0:35:LR_Kick Hard Fast.wav
36,192,91730,128,0,92821:0:0:0:0:
256,192,91821,1,0,0:0:0:35:LR_Kick Hard Fast.wav
182,192,91912,1,0,0:0:0:35:LR_Kick Hard Fast.wav
109,192,92003,1,0,0:0:0:35:LR_Kick Hard Fast.wav
402,192,92003,1,0,0:0:0:0:
329,192,92094,1,0,0:0:0:35:LR_Kick Hard Fast.wav
256,192,92184,1,0,0:0:0:35:LR_Kick Hard Fast.wav
182,192,92275,1,0,0:0:0:35:LR_Tom Hit.wav
475,192,92275,1,0,0:0:0:35:LR_Kick Hard Fast.wav
109,192,92366,1,0,0:0:0:35:LR_Kick Hard Fast.wav
182,192,92457,1,0,0:0:0:35:LR_Kick Hard Fast.wav
256,192,92548,1,0,0:0:0:35:LR_Kick Hard Fast.wav
475,192,92548,1,0,0:0:0:0:
329,192,92639,1,0,0:0:0:35:LR_Kick Hard Fast.wav
182,192,92730,1,0,0:0:0:35:LR_Kick Hard Fast.wav
402,192,92821,128,0,93912:0:0:0:0:
329,192,92821,1,0,0:0:0:35:LR_Kick Hard Fast.wav
256,192,92821,1,0,0:0:0:0:
182,192,92912,1,0,0:0:0:35:LR_Kick Hard Fast.wav
109,192,93003,1,0,0:0:0:35:LR_Kick Hard Fast.wav
36,192,93094,1,0,0:0:0:35:LR_Kick Hard Fast.wav
256,192,93094,1,0,0:0:0:0:
182,192,93184,1,0,0:0:0:35:LR_Kick Hard Fast.wav
109,192,93275,1,0,0:0:0:35:LR_Kick Hard Fast.wav
329,192,93366,1,0,0:0:0:35:LR_Tom Hit.wav
36,192,93366,1,0,0:0:0:35:LR_Kick Hard Fast.wav
256,192,93457,1,0,0:0:0:35:LR_Kick Hard Fast.wav
182,192,93548,1,0,0:0:0:35:LR_Kick Hard Fast.wav
109,192,93639,1,0,0:0:0:35:LR_Kick Hard Fast.wav
329,192,93639,1,0,0:0:0:0:
256,192,93730,1,0,0:0:0:35:LR_Kick Hard Fast.wav
182,192,93821,1,0,0:0:0:35:LR_Kick Hard Fast.wav
475,192,93912,128,0,95003:0:0:0:0:
36,192,93912,1,0,0:0:0:35:LR_Kick Hard Fast.wav
109,192,93912,1,0,0:0:0:0:
329,192,94003,1,0,0:0:0:35:LR_Kick Hard Fast.wav
256,192,94094,1,0,0:0:0:35:LR_Kick Hard Fast.wav
109,192,94184,1,0,0:0:0:35:LR_Kick Hard Fast.wav
36,192,94184,1,0,0:0:0:0:
182,192,94275,1,0,0:0:0:35:LR_Kick Hard Fast.wav
256,192,94366,1,0,0:0:0:35:LR_Kick Hard Fast.wav
329,192,94457,1,0,0:0:0:35:LR_Kick Hard Fast.wav
109,192,94457,1,0,0:0:0:0:
402,192,94457,1,0,0:0:0:0:
36,192,94594,1,0,0:0:0:0:
109,192,94662,1,0,0:0:0:0:
256,192,94730,1,0,0:0:0:35:LR_Kick Hard Fast.wav
182,192,94730,1,0,0:0:0:0:
36,192,94866,1,0,0:0:0:0:
329,192,94866,1,0,0:0:0:0:
182,192,95003,1,0,0:0:0:35:LR_Kick Hard Fast.wav
109,192,95003,1,0,0:0:0:0:
402,192,95003,1,0,0:0:0:35:soft-hitfinish.wav
329,192,95071,1,0,0:0:0:0:
256,192,95139,1,0,0:0:0:0:
182,192,95207,1,0,0:0:0:0:
109,192,95275,1,0,0:0:0:30:LR_Drum Hit Clap Sn.wav
36,192,95275,1,0,0:0:0:0:
475,192,95275,1,0,0:0:0:0:
402,192,95344,1,0,0:0:0:0:
329,192,95412,1,0,0:0:0:0:
256,192,95480,1,0,0:0:0:0:
109,192,95548,1,0,0:0:0:35:LR_Kick Hard Fast.wav
36,192,95548,1,0,0:0:0:0:
402,192,95548,1,0,0:0:0:0:
329,192,95616,1,0,0:0:0:0:
256,192,95684,1,0,0:0:0:0:
182,192,95753,1,0,0:0:0:0:
36,192,95821,1,0,0:0:0:30:LR_Drum Hit Clap Sn.wav
109,192,95821,1,0,0:0:0:0:
475,192,95821,1,0,0:0:0:0:
256,192,95957,1,0,0:0:0:0:
329,192,95957,1,0,0:0:0:0:
402,192,96094,128,0,96366:0:0:0:0:
109,192,96094,1,0,0:0:0:35:soft-hitfinish.wav
182,192,96094,1,0,0:0:0:0:
256,192,96230,1,0,0:0:0:0:
109,192,96366,1,0,0:0:0:30:LR_Drum Hit Clap Sn.wav
182,192,96366,1,0,0:0:0:0:
402,192,96503,1,0,0:0:0:30:soft-hitfinish.wav
475,192,96503,128,0,97184:0:0:0:0:
36,192,96503,1,0,0:0:0:35:LR_Kick Hard Fast.wav
329,192,96775,1,0,0:0:0:30:LR_Kick Hard Fast.wav
256,192,96912,1,0,0:0:0:30:LR_Drum Hit Clap Sn.wav
182,192,96912,1,0,0:0:0:0:
402,192,97184,1,0,0:0:0:35:LR_Kick Hard Fast.wav
329,192,97184,1,0,0:0:0:0:
109,192,97184,128,0,97457:0:0:0:0:
256,192,97321,1,0,0:0:0:0:
329,192,97457,1,0,0:0:0:30:LR_Drum Hit Clap Sn.wav
402,192,97457,1,0,0:0:0:0:
36,192,97594,128,0,98275:0:0:0:0:
109,192,97594,1,0,0:0:0:0:
475,192,97594,1,0,0:0:0:35:LR_Kick Hard Fast.wav
256,192,97730,1,0,0:0:0:0:
329,192,97730,1,0,0:0:0:0:
109,192,97866,1,0,0:0:0:35:LR_Kick Hard Fast.wav
182,192,97934,1,0,0:0:0:0:
256,192,98003,1,0,0:0:0:30:LR_Drum Hit Clap Sn.wav
475,192,98003,1,0,0:0:0:0:
402,192,98071,1,0,0:0:0:0:
329,192,98139,1,0,0:0:0:0:
256,192,98207,1,0,0:0:0:0:
109,192,98275,128,0,98821:0:0:0:0:
182,192,98275,1,0,0:0:0:0:
329,192,98366,1,0,0:0:0:35:LR_Drum Hit Clap Sn.wav
475,192,98457,1,0,0:0:0:35:LR_Drum Hit Clap Sn.wav
182,192,98548,1,0,0:0:0:35:LR_Drum Hit Clap Sn.wav
256,192,98639,1,0,0:0:0:35:LR_Drum Hit Clap Sn.wav
329,192,98730,1,0,0:0:0:35:LR_Drum Hit Clap Sn.wav
475,192,98821,128,0,99366:0:0:0:0:
402,192,98821,1,0,0:0:0:0:
256,192,98912,1,0,0:0:0:35:LR_Drum Hit Clap Sn.wav
182,192,99003,1,0,0:0:0:35:LR_Drum Hit Clap Sn.wav
402,192,99094,1,0,0:0:0:35:LR_Drum Hit Clap Sn.wav
109,192,99094,1,0,0:0:0:0:
329,192,99184,1,0,0:0:0:35:LR_Drum Hit Clap Sn.wav
256,192,99275,1,0,0:0:0:35:LR_Drum Hit Clap Sn.wav
402,192,99366,128,0,99912:0:0:0:0:
36,192,99366,1,0,0:0:0:0:
182,192,99366,1,0,0:0:0:0:
256,192,99457,1,0,0:0:0:35:LR_Drum Hit Clap Sn.wav
329,192,99548,1,0,0:0:0:35:LR_Drum Hit Clap Sn.wav
36,192,99639,1,0,0:0:0:35:LR_Drum Hit Clap Sn.wav
109,192,99730,1,0,0:0:0:35:LR_Drum Hit Clap Sn.wav
182,192,99821,1,0,0:0:0:35:LR_Drum Hit Clap Sn.wav
256,192,99912,128,0,100457:0:0:0:0:
36,192,99912,1,0,0:0:0:0:
109,192,100003,1,0,0:0:0:35:LR_Drum Hit Clap Sn.wav
182,192,100094,1,0,0:0:0:35:LR_Drum Hit Clap Sn.wav
475,192,100184,1,0,0:0:0:35:LR_Drum Hit Clap Sn.wav
402,192,100275,1,0,0:0:0:35:LR_Drum Hit Clap Sn.wav
329,192,100366,1,0,0:0:0:35:LR_Drum Hit Clap Sn.wav
36,192,100457,128,0,103730:0:0:0:0:
109,192,100457,1,0,0:0:0:0:
475,192,100457,1,0,0:0:0:35:LR_Kick Hard Fast.wav
182,192,100594,1,0,0:0:0:0:
402,192,100730,1,0,0:0:0:30:LR_Drum Hit Clap Sn.wav
475,192,100730,1,0,0:0:0:0:
256,192,100730,1,0,0:0:0:0:
109,192,100866,1,0,0:0:0:35:LR_Kick Hard Fast.wav
329,192,101003,1,0,0:0:0:0:
256,192,101139,1,0,0:0:0:35:LR_Kick Hard Fast.wav
402,192,101275,1,0,0:0:0:30:LR_Drum Hit Clap Sn.wav
475,192,101275,1,0,0:0:0:0:
182,192,101275,1,0,0:0:0:0:
256,192,101412,1,0,0:0:0:35:LR_Kick Hard Fast.wav
109,192,101548,1,0,0:0:0:0:
329,192,101684,1,0,0:0:0:35:LR_Kick Hard Fast.wav
402,192,101821,1,0,0:0:0:30:LR_Drum Hit Clap Sn.wav
475,192,101821,1,0,0:0:0:0:
182,192,101821,1,0,0:0:0:0:
256,192,101957,1,0,0:0:0:0:
109,192,102094,1,0,0:0:0:35:LR_Kick Hard Fast.wav
109,192,102230,1,0,0:0:0:35:LR_Kick Hard Fast.wav
402,192,102366,1,0,0:0:0:30:LR_Drum Hit Clap Sn.wav
475,192,102366,1,0,0:0:0:0:
256,192,102366,1,0,0:0:0:0:
256,192,102503,1,0,0:0:0:0:
329,192,102639,1,0,0:0:0:35:LR_Kick Hard Fast.wav
182,192,102775,1,0,0:0:0:0:
402,192,102912,1,0,0:0:0:30:LR_Drum Hit Clap Sn.wav
475,192,102912,1,0,0:0:0:0:
256,192,102912,1,0,0:0:0:0:
109,192,103048,1,0,0:0:0:35:LR_Kick Hard Fast.wav
329,192,103184,1,0,0:0:0:0:
182,192,103321,1,0,0:0:0:35:LR_Kick Hard Fast.wav
402,192,103457,1,0,0:0:0:30:LR_Drum Hit Clap Sn.wav
475,192,103457,1,0,0:0:0:0:
109,192,103457,1,0,0:0:0:0:
256,192,103594,1,0,0:0:0:35:LR_Kick Hard Fast.wav
182,192,103730,1,0,0:0:0:0:
329,192,103730,128,0,104821:0:0:0:0:
475,192,103866,1,0,0:0:0:35:LR_Kick Hard Fast.wav
36,192,104003,1,0,0:0:0:30:LR_Drum Hit Clap Sn.wav
109,192,104003,1,0,0:0:0:0:
402,192,104003,1,0,0:0:0:0:
256,192,104139,1,0,0:0:0:0:
182,192,104275,1,0,0:0:0:35:LR_Kick Hard Fast.wav
182,192,104412,1,0,0:0:0:35:LR_Kick Hard Fast.wav
36,192,104548,1,0,0:0:0:30:LR_Drum Hit Clap Sn.wav
109,192,104548,1,0,0:0:0:0:
475,192,104548,1,0,0:0:0:0:
475,192,104684,1,0,0:0:0:0:
182,192,104821,128,0,106457:0:0:0:0:
402,192,104821,1,0,0:0:0:35:soft-hitfinish.wav
109,192,104821,1,0,0:0:0:0:
36,192,104957,1,0,0:0:0:0:
402,192,105094,1,0,0:0:0:30:LR_Drum Hit Clap Sn.wav
475,192,105094,1,0,0:0:0:0:
256,192,105094,1,0,0:0:0:0:
109,192,105230,1,0,0:0:0:35:LR_Kick Hard Fast.wav
329,192,105366,1,0,0:0:0:0:
36,192,105503,1,0,0:0:0:35:LR_Kick Hard Fast.wav
402,192,105639,1,0,0:0:0:30:LR_Drum Hit Clap Sn.wav
475,192,105639,1,0,0:0:0:0:
256,192,105639,1,0,0:0:0:0:
109,192,105775,1,0,0:0:0:35:LR_Kick Hard Fast.wav
329,192,105912,1,0,0:0:0:0:
36,192,106048,1,0,0:0:0:35:LR_Kick Hard Fast.wav
402,192,106184,1,0,0:0:0:30:LR_Drum Hit Clap Sn.wav
475,192,106184,1,0,0:0:0:0:
109,192,106184,1,0,0:0:0:0:
329,192,106321,1,0,0:0:0:0:
256,192,106457,1,0,0:0:0:35:LR_Kick Hard Fast.wav
256,192,106594,1,0,0:0:0:35:LR_Kick Hard Fast.wav
36,192,106730,1,0,0:0:0:30:LR_Drum Hit Clap Sn.wav
109,192,106730,1,0,0:0:0:0:
475,192,106730,1,0,0:0:0:0:
475,192,106866,1,0,0:0:0:0:
402,192,107003,128,0,108094:0:0:0:0:
182,192,107003,1,0,0:0:0:35:soft-hitfinish.wav
109,192,107003,1,0,0:0:0:0:
329,192,107139,1,0,0:0:0:0:
36,192,107275,1,0,0:0:0:30:LR_Drum Hit Clap Sn.wav
109,192,107275,1,0,0:0:0:0:
256,192,107275,1,0,0:0:0:0:
329,192,107412,1,0,0:0:0:35:LR_Kick Hard Fast.wav
182,192,107548,1,0,0:0:0:0:
475,192,107684,1,0,0:0:0:35:LR_Kick Hard Fast.wav
109,192,107821,1,0,0:0:0:30:LR_Drum Hit Clap Sn.wav
36,192,107821,1,0,0:0:0:0:
256,192,107821,1,0,0:0:0:0:
182,192,107957,1,0,0:0:0:0:
109,192,108094,1,0,0:0:0:35:LR_Kick Hard Fast.wav
475,192,108094,128,0,109184:0:0:0:0:
182,192,108162,1,0,0:0:0:0:
256,192,108230,1,0,0:0:0:35:LR_Kick Hard Fast.wav
329,192,108298,1,0,0:0:0:0:
36,192,108366,1,0,0:0:0:35:LR_Kick Hard Fast.wav
109,192,108366,1,0,0:0:0:35:LR_Drum Hit Clap Sn.wav
182,192,108434,1,0,0:0:0:0:
256,192,108503,1,0,0:0:0:35:LR_Kick Hard Fast.wav
329,192,108571,1,0,0:0:0:0:
182,192,108639,1,0,0:0:0:35:LR_Drum Hit Clap Sn.wav
256,192,108707,1,0,0:0:0:0:
329,192,108775,1,0,0:0:0:35:LR_Kick Hard Fast.wav
402,192,108844,1,0,0:0:0:0:
36,192,108912,1,0,0:0:0:35:LR_Kick Hard Fast.wav
109,192,108912,1,0,0:0:0:35:LR_Drum Hit Clap Sn.wav
182,192,108980,1,0,0:0:0:0:
256,192,109048,1,0,0:0:0:0:
329,192,109116,1,0,0:0:0:0:
402,192,109184,1,0,0:0:0:35:soft-hitfinish.wav
182,192,109184,1,0,0:0:0:0:
109,192,109184,1,0,0:0:0:30:LR_Drum Hit Clap Sn.wav
182,192,109321,1,0,0:0:0:35:LR_Kick Hard Fast.wav
109,192,109321,1,0,0:0:0:0:
475,192,109457,1,0,0:0:0:30:LR_Drum Hit Clap Sn.wav
402,192,109457,1,0,0:0:0:0:
36,192,109594,1,0,0:0:0:35:LR_Kick Hard Fast.wav
109,192,109594,1,0,0:0:0:0:
329,192,109594,1,0,0:0:0:0:
36,192,109730,1,0,0:0:0:30:LR_Drum Hit Clap Sn.wav
109,192,109730,1,0,0:0:0:0:
182,192,109866,1,0,0:0:0:35:LR_Kick Hard Fast.wav
256,192,109866,1,0,0:0:0:0:
475,192,110003,1,0,0:0:0:30:LR_Drum Hit Clap Sn.wav
402,192,110003,1,0,0:0:0:0:
109,192,110003,1,0,0:0:0:0:
402,192,110139,1,0,0:0:0:35:LR_Kick Hard Fast.wav
475,192,110139,1,0,0:0:0:0:
256,192,110275,1,0,0:0:0:30:LR_Drum Hit Clap Sn.wav
182,192,110275,1,0,0:0:0:0:
36,192,110412,1,0,0:0:0:35:LR_Kick Hard Fast.wav
109,192,110412,1,0,0:0:0:0:
329,192,110412,1,0,0:0:0:0:
109,192,110548,1,0,0:0:0:30:LR_Drum Hit Clap Sn.wav
36,192,110548,1,0,0:0:0:0:
475,192,110684,1,0,0:0:0:35:LR_Kick Hard Fast.wav
402,192,110684,1,0,0:0:0:0:
109,192,110821,1,0,0:0:0:30:LR_Drum Hit Clap Sn.wav
256,192,110821,1,0,0:0:0:0:
329,192,110821,1,0,0:0:0:0:
329,192,110957,1,0,0:0:0:35:LR_Kick Hard Fast.wav
256,192,110957,1,0,0:0:0:0:
36,192,111094,1,0,0:0:0:30:LR_Drum Hit Clap Sn.wav
402,192,111094,1,0,0:0:0:0:
475,192,111094,1,0,0:0:0:0:
402,192,111230,1,0,0:0:0:35:LR_Kick Hard Fast.wav
475,192,111230,1,0,0:0:0:0:
182,192,111366,1,0,0:0:0:30:LR_Drum Hit Clap Sn.wav
329,192,111366,1,0,0:0:0:0:
109,192,111366,1,0,0:0:0:0:
109,192,111503,1,0,0:0:0:35:LR_Kick Hard Fast.wav
182,192,111503,1,0,0:0:0:0:
475,192,111639,1,0,0:0:0:30:LR_Drum Hit Clap Sn.wav
402,192,111639,1,0,0:0:0:0:
36,192,111775,1,0,0:0:0:35:LR_Kick Hard Fast.wav
109,192,111775,1,0,0:0:0:0:
256,192,111775,1,0,0:0:0:0:
109,192,111912,1,0,0:0:0:30:LR_Drum Hit Clap Sn.wav
36,192,111912,1,0,0:0:0:0:
182,192,112048,1,0,0:0:0:35:LR_Kick Hard Fast.wav
256,192,112048,1,0,0:0:0:0:
402,192,112184,1,0,0:0:0:30:LR_Drum Hit Clap Sn.wav
329,192,112184,1,0,0:0:0:0:
109,192,112184,1,0,0:0:0:0:
329,192,112321,1,0,0:0:0:35:LR_Kick Hard Fast.wav
402,192,112321,1,0,0:0:0:0:
36,192,112457,1,0,0:0:0:30:LR_Drum Hit Clap Sn.wav
109,192,112457,1,0,0:0:0:0:
402,192,112594,1,0,0:0:0:35:LR_Kick Hard Fast.wav
475,192,112594,1,0,0:0:0:0:
256,192,112594,1,0,0:0:0:0:
475,192,112730,1,0,0:0:0:30:LR_Drum Hit Clap Sn.wav
402,192,112730,1,0,0:0:0:0:
109,192,112866,1,0,0:0:0:35:LR_Kick Hard Fast.wav
182,192,112866,1,0,0:0:0:0:
256,192,113003,1,0,0:0:0:30:LR_Drum Hit Clap Sn.wav
329,192,113003,1,0,0:0:0:0:
36,192,113003,1,0,0:0:0:0:
402,192,113139,1,0,0:0:0:35:LR_Kick Hard Fast.wav
475,192,113139,1,0,0:0:0:0:
329,192,113275,1,0,0:0:0:30:LR_Drum Hit Clap Sn.wav
256,192,113275,1,0,0:0:0:0:
109,192,113275,1,0,0:0:0:0:
329,192,113548,5,0,0:0:0:0:
475,192,113548,1,0,0:0:0:35:soft-hitfinish.wav
36,192,113548,1,0,0:0:0:0:
182,192,113548,1,0,0:0:0:0:
475,192,113684,1,0,0:0:0:35:LR_Kick Hard Fast.wav
182,192,113684,1,0,0:0:0:0:
329,192,113684,1,0,0:0:0:0:
109,192,113821,1,0,0:0:0:30:LR_Drum Hit Clap Sn.wav
402,192,113821,1,0,0:0:0:0:
329,192,113957,1,0,0:0:0:35:LR_Kick Hard Fast.wav
182,192,113957,1,0,0:0:0:0:
36,192,113957,1,0,0:0:0:0:
182,192,114094,1,0,0:0:0:0:
329,192,114094,1,0,0:0:0:0:
36,192,114094,1,0,0:0:0:0:
256,192,114230,1,0,0:0:0:35:LR_Kick Hard Fast.wav
109,192,114230,1,0,0:0:0:0:
329,192,114366,1,0,0:0:0:30:LR_Drum Hit Clap Sn.wav
475,192,114366,1,0,0:0:0:0:
36,192,114366,1,0,0:0:0:0:
475,192,114503,1,0,0:0:0:35:LR_Kick Hard Fast.wav
329,192,114503,1,0,0:0:0:0:
36,192,114503,1,0,0:0:0:0:
402,192,114639,1,0,0:0:0:0:
256,192,114639,1,0,0:0:0:0:
475,192,114775,1,0,0:0:0:35:LR_Kick Hard Fast.wav
36,192,114775,1,0,0:0:0:0:
182,192,114775,1,0,0:0:0:0:
36,192,114912,1,0,0:0:0:30:LR_Drum Hit Clap Sn.wav
475,192,114912,1,0,0:0:0:0:
182,192,114912,1,0,0:0:0:0:
109,192,115048,1,0,0:0:0:35:LR_Kick Hard Fast.wav
402,192,115048,1,0,0:0:0:0:
329,192,115184,1,0,0:0:0:0:
475,192,115184,1,0,0:0:0:35:soft-hitfinish.wav
182,192,115184,1,0,0:0:0:0:
475,192,115321,1,0,0:0:0:35:LR_Kick Hard Fast.wav
182,192,115321,1,0,0:0:0:0:
329,192,115321,1,0,0:0:0:0:
182,192,115457,1,0,0:0:0:30:LR_Drum Hit Clap Sn.wav
36,192,115457,1,0,0:0:0:0:
329,192,115457,1,0,0:0:0:0:
182,192,115594,1,0,0:0:0:0:
36,192,115594,1,0,0:0:0:0:
329,192,115594,1,0,0:0:0:0:
36,192,115730,1,0,0:0:0:35:soft-hitfinish.wav
109,192,115730,1,0,0:0:0:0:
402,192,115730,128,0,115866:0:0:0:0:
475,192,115730,128,0,115866:0:0:0:0:
256,192,115866,128,0,116003:0:0:0:0:
36,192,116003,1,0,0:0:0:30:LR_Drum Hit Clap Sn.wav
109,192,116003,128,0,116139:0:0:0:0:
475,192,116139,1,0,0:0:0:35:LR_Kick Hard Fast.wav
329,192,116139,128,0,116275:0:0:0:0:
402,192,116139,128,0,116275:0:0:0:0:
182,192,116275,128,0,116412:0:0:0:0:
256,192,116412,1,0,0:0:0:35:LR_Kick Hard Fast.wav
36,192,116412,128,0,116548:0:0:0:0:
109,192,116548,1,0,0:0:0:0:
402,192,116548,128,0,116684:0:0:0:0:
475,192,116548,128,0,116684:0:0:0:0:
256,192,116684,128,0,116821:0:0:0:0:
109,192,116821,128,0,116957:0:0:0:0:
402,192,116957,128,0,117366:0:0:0:0:
182,192,117094,128,0,117366:0:0:0:0:
36,192,117230,128,0,117366:0:0:0:0:
329,192,117366,128,0,117503:0:0:0:0:
475,192,117366,128,0,117639:0:0:0:0:
109,192,117503,128,0,117775:0:0:0:0:
256,192,117503,128,0,117639:0:0:0:0:
36,192,117639,128,0,117775:0:0:0:0:
329,192,117639,128,0,117912:0:0:0:0:
182,192,117775,128,0,117912:0:0:0:0:
475,192,117775,128,0,117912:0:0:0:0:
36,192,117912,1,0,0:0:0:30:LR_Drum Hit Clap Sn.wav
109,192,117912,1,0,0:0:0:0:
475,192,118003,1,0,0:0:0:30:LR_Drum Hit Clap Sn.wav
402,192,118003,1,0,0:0:0:0:
329,192,118094,1,0,0:0:0:35:LR_Kick Hard Fast.wav
256,192,118094,1,0,0:0:0:0:
182,192,118184,1,0,0:0:0:35:LR_Kick Hard Fast.wav
109,192,118184,1,0,0:0:0:0:
36,192,118389,1,0,0:0:0:35:LR_Kick Hard Fast.wav
182,192,118457,1,0,0:0:0:30:soft-hitfinish.wav
475,192,118457,1,0,0:0:0:0:
329,192,118457,128,0,122275:0:0:0:0:
